Churuli srt

Thamasha Malayalam Movie: Check out the latest news about Chemban Vinod Jose's Thamasha movie, story, cast & crew, release date, photos, review, box office collections and much more only on FilmiBeatChuruli Labirynt (2021).en.pl.srt • napisy PL z TRANSLATORA Wykorzystujemy pliki cookies i podobne technologie w celu usprawnienia korzystania z serwisu Chomikuj.pl oraz wyświetlenia reklam dopasowanych do Twoich potrzeb.This is the list of the films that are available to voters in the Oscars race for Best International Feature Film. Each country is permitted to enter a single film, as selected by an Academy ...8.3/10. In a bid to save an 8-year-old girl from becoming the victim of Sati, Anirudh marries a curious and tyrant girl Bondita. Anirudh educates Bondita and makes her the first Barrister Babu of their region. Barrister Babu is a 2020 Hindi-language Drama television show featuring Sam Heaney, Barsha Chatterjee, Pravisht Mishra and Rohan Roy.After that Move the SRT file to the Movie/Tv-Series Folder. Open The video player. Click on the video you need to open. Click on the right-side button (in MX player). Then click on the subtitle option and then click on Open. Then go to the subtitle file and click on the subtitle file. If you are watching Churuli bsub on ComputerDownload Fright Night 2 New Blood 2013 1080p BluRay H264 AAC-RARBG torrent for free, Downloads via Magnet Link or FREE Movies online to Watch in LimeTorrents.pro Hash ... Each video can have one or more subtitles (txt or srt). Landscapes Volume Two Each video can contain a detailed description, the description can be formatted with CSS as you like. Full text of "The validity of the Holy orders of the Church of England maintained and vindicated, both theologically and historically, with foot-notes, tables of consecrations, and appendices" See other formatsChuruli was released on Feb 12, 2021 and was directed by Lijo Jose Pellissery .This movie is 1 hr 54 min in duration and is available in Malayalam language. Chemban Vinod Jose, Surjith,...Title: My HTML playlist 1 Type: HTML Description: Created using HTML markup, all format are supported and it can have mixed video formats. Title: My Youtube playlist 1 Type: YOUTUBE Description: Created by loading a Youtube playlist, video are loaded and played from Youtube. Title: My mixed playlist 1 Type: MIXED Description: Created using HTML markup, videos are played self or external hosted ...Churuli Labirynt (2021).en.pl.srt • napisy PL z TRANSLATORA Wykorzystujemy pliki cookies i podobne technologie w celu usprawnienia korzystania z serwisu Chomikuj.pl oraz wyświetlenia reklam dopasowanych do Twoich potrzeb.Tovino Thomas's 2020 Kilometers And Kilometers Full Movie Download. By. Sarala Vanga. 'Kilometers And Kilometers' is a 2020 Malayalam movie made under the direction of Joe Baby. Ramshi has produced this movie under the banner: Anto Joseph Film Company. The lead roles are played by Tovino Thomas.Title: My HTML playlist 1 Type: HTML Description: Created using HTML markup, all format are supported and it can have mixed video formats. Title: My Youtube playlist 1 Type: YOUTUBE Description: Created by loading a Youtube playlist, video are loaded and played from Youtube. Title: My mixed playlist 1 Type: MIXED Description: Created using HTML markup, videos are played self or external hosted ...yifytorrent.unblockit.llcBhuj: The Pride of India Full Movie online with release date, trailer, cast and songs. Find out where you can watch or stream this Action film in Hindi on DIgit Binge.Churuli Labirynt (2021).en.pl.srt • napisy PL z TRANSLATORA Wykorzystujemy pliki cookies i podobne technologie w celu usprawnienia korzystania z serwisu Chomikuj.pl oraz wyświetlenia reklam dopasowanych do Twoich potrzeb. Each video can have one or more subtitles (txt or srt). Pre, Middle, Post - Roll Advertisement. ... Churuli 2021 7.3. 7.3; 2021. YEAR. HD-RIP. Quality. Hindi Dubbed. Fantasy,Mystery, Science Fiction, Horror. min. Churuli . Two cops undercover trailing a fugitive enter a hamlet inside a dense forest. At every turn, they encounter a mysterious ...Each video can have one or more subtitles (txt or srt). Pre, Middle, Post - Roll Advertisement. ... Churuli 2021 7.3. 7.3; 2021. YEAR. HD-RIP. Quality. Hindi Dubbed. Fantasy,Mystery, Science Fiction, Horror. min. Churuli . Two cops undercover trailing a fugitive enter a hamlet inside a dense forest. At every turn, they encounter a mysterious ...Each video can have one or more subtitles (txt or srt). Pre, Middle, Post - Roll Advertisement. ... Churuli 2021 7.3. 7.3; 2021. YEAR. HD-RIP. Quality. Hindi Dubbed. Fantasy,Mystery, Science Fiction, Horror. min. Churuli . Two cops undercover trailing a fugitive enter a hamlet inside a dense forest. At every turn, they encounter a mysterious ...global; news; ch; se; dk; no; nl; be; uk; ru; de; fr; fi; it; at; es; pt; pl; ie; gr; cz; tr; ae; ca; jp; kr; ar; br; inUn film de Genie Joseph avec Felix Ward et Maria Pechukas. Synopsis : Un sorcier diabolique, bien que décomposé, attire dans sa maison pleine d'horreurs cachées, un groupe de fêtards, afin de trouver parmi eux le parfait sacrifice humain, qui permettra de redonner vie à sa belle fiancée. La terreur ...Index of hindi web seriesDownload subtitle Indonesia disini Baca panduan disini west/lostinspaceseason1/8360.MP4 west/lostinspaceseason1/8480.MP4 west/lostinspaceseason1/8720 lostinspaceseason1/8.srt| 1346388/ Incoming search terms:lost in space sub indochuchy ns2infoxixi lost in spcelost in space s3 sub indolost in space season 2 download sub indononton film lost in spacenonton lost in spacenonton the lost in space Subscene - Passionate about good subtitlesAnswer (1 of 3): Kalapani is a classic Malayalam movie which deals with the freedom struggle and life of prisoners in the notorious Andaman jail. The movie begins with a young army officer in independent India undertaking a journey to find out the whereabouts of Govardhan Menon. The movie unf...Download Fright Night 2 New Blood 2013 1080p BluRay H264 AAC-RARBG torrent for free, Downloads via Magnet Link or FREE Movies online to Watch in LimeTorrents.pro Hash ... Download Fright Night 2 New Blood 2013 1080p BluRay H264 AAC-RARBG torrent for free, Downloads via Magnet Link or FREE Movies online to Watch in LimeTorrents.pro Hash ... srt macbride, but end up in harmful downloads. Rather than reading a good book with a cup of coffee in the afternoon, instead they juggled with some harmful bugs inside their desktop computer. birthdays for the dead srt macbride is available in our digital library an online access to it is set as public so you can download it instantly.About Press Copyright Contact us Creators Advertise Developers Terms Privacy Policy & Safety How YouTube works Test new featuresChuruli Labirynt (2021).en.pl.srt • napisy PL z TRANSLATORA Wykorzystujemy pliki cookies i podobne technologie w celu usprawnienia korzystania z serwisu Chomikuj.pl oraz wyświetlenia reklam dopasowanych do Twoich potrzeb.Churuli (2021) TRUE WEB-DL - [1080p & 720p - AVC - (Tamil + Telugu + Hindi + Kannada + Malayalam) - 2.6GB & 1.2GB] - [x264 - 750MB - 450MB & 250MB] - ESubDownload Sky Sharks 2020 1080p US BluRay x265-RARBG torrent for free, Downloads via Magnet Link or FREE Movies online to Watch in LimeTorrents.pro Hash ...Churuli was released on Feb 12, 2021 and was directed by Lijo Jose Pellissery .This movie is 1 hr 54 min in duration and is available in Malayalam language. Chemban Vinod Jose, Surjith,...Bhuj: The Pride of India Full Movie online with release date, trailer, cast and songs. Find out where you can watch or stream this Action film in Hindi on DIgit Binge.7.3. jantoniot. Churuli (2021) Churuli (2021) Malayalam - WEB - HDRip - ESub. Watch online Download Subtitles Searcher. 1CD.8.3/10. In a bid to save an 8-year-old girl from becoming the victim of Sati, Anirudh marries a curious and tyrant girl Bondita. Anirudh educates Bondita and makes her the first Barrister Babu of their region. Barrister Babu is a 2020 Hindi-language Drama television show featuring Sam Heaney, Barsha Chatterjee, Pravisht Mishra and Rohan Roy.Churuli (2021) TRUE WEB-DL - [1080p & 720p - AVC - (Tamil + Telugu + Hindi + Kannada + Malayalam) - 2.6GB & 1.2GB] - [x264 - 750MB - 450MB & 250MB] - ESubTitle : SRT Language : English Default : Yes Forced : No Text #2 ID : 8 ID in the original source medium : 4608 (0x1200) Format : PGS Muxing mode : zlib Codec ID : S_HDMV/PGS Codec ID/Info : Picture based subtitle format used on BDs/HD-DVDs Duration : 1 h 43 min Bit rate : 53.3 kb/s Count of elements : 3176 Stream size : 39.3 MiB (0%) Language ...channel telegram audience statistics of 🗂️ 𝗚𝗥𝗢𝗨𝗣 𝟮 𝗙𝗜𝗟𝗘𝗦 𝗦𝗧𝗢𝗥𝗔𝗚𝗘 🗂️ telegram channel. . Subscriber gain, reaches, views mmfilestorage on Telemetrio. Hey 👋 Sanil 😍 [MM] Churuli (2021) Malayalam HQ HDRip - 720p - x264 - .mkv ⚠️ കോപ്പി റൈറ്റ് ഉള്ളത് കൊണ്ട് ഈ ഒരു ഫയ ...Genre: Fantasy, Mystery, Sci-Fi Director: Lijo Jose Pellissery Writer: Hareesh S., Vinoy Thomas Actors: Chemban Vinod Jose, Vinay Forrt, Joju George Runtime: 2h 0min Country: India Language: Malayalam Release Date: 2021-11-19 Production: Chembosky Motion Pictures, Kasargod Aadmi Pictures, Movie MonasteryChuruli Labirynt (2021).en.pl.srt • napisy PL z TRANSLATORA Wykorzystujemy pliki cookies i podobne technologie w celu usprawnienia korzystania z serwisu Chomikuj.pl oraz wyświetlenia reklam dopasowanych do Twoich potrzeb. Title: My HTML playlist 1 Type: HTML Description: Created using HTML markup, all format are supported and it can have mixed video formats. Title: My Youtube playlist 1 Type: YOUTUBE Description: Created by loading a Youtube playlist, video are loaded and played from Youtube. Title: My mixed playlist 1 Type: MIXED Description: Created using HTML markup, videos are played self or external hosted ...Churuli (ചുരുളി) is a 2021 Indian Malayalam -language science fiction mystery horror film directed by Lijo Jose Pellissery and written by S. Hareesh, starring Vinay Forrt, Chemban Vinod Jose and Jaffar Idukki in key roles. Pon Manickavel is an Tamil action thriller movie directed by A. C. Mugil Chellappan of Kandaen fame. The movie Pon Manickavel stars Prabhu Deva and Nivetha Pethuraj in lead roles.Genre: Fantasy, Mystery, Sci-Fi Director: Lijo Jose Pellissery Writer: Hareesh S., Vinoy Thomas Actors: Chemban Vinod Jose, Vinay Forrt, Joju George Runtime: 2h 0min Country: India Language: Malayalam Release Date: 2021-11-19 Production: Chembosky Motion Pictures, Kasargod Aadmi Pictures, Movie MonasteryChuruli A Fantasy, Thriller, Mystery Malayalam 2021 1hour 54minutes Two cops undercover trailing a fugitive find themselves trapped in a perpetual labyrinth of a village. A lovely mysterious forest that, like a chameleon, changed its colours and lays hidden. People with smiling faces, harbouring a thousand secrets inside.Desi Melodies is proud to present 'Bijlee Bijlee', a song that brings back the Punjabi-pop sound that Harrdy Sandhu originally pioneered and marks his reunio...Download subtitle Indonesia disini Baca panduan disini west/lostinspaceseason1/8360.MP4 west/lostinspaceseason1/8480.MP4 west/lostinspaceseason1/8720 lostinspaceseason1/8.srt| 1346388/ Incoming search terms:lost in space sub indochuchy ns2infoxixi lost in spcelost in space s3 sub indolost in space season 2 download sub indononton film lost in spacenonton lost in spacenonton the lost in space New Delhi: Moments after the Union Budget 2022-23 was presented and Lok Sabha adjourned on Tuesday, an interesting conversation took place off the camera when Prime Minister Narendra Modi crossed the well of the House and met the leaders of opposition parties.With Seedr, you can download anything when you want it, without the hassle of having to download, unzip, and keep track of multiple files. Never panic about your device screen locking and breaking your download again!'Marakkar Lion of the Arabian Sea' portrays the courageous life-events of a rebellious naval chief, Kunjali Marakkar the fourth, who fought against the Portuguese in the ancient times. He was the fourth naval chief of the Calicut Zamorin. The film revolves around him who was also the first Indian Naval Commander and Indian freedom fighter for the war against the Portuguese.Each video can have one or more subtitles (txt or srt). Landscapes Volume Two. Each video can contain a detailed description, the description can be formatted with CSS as you like. ... Churuli 2021 7.3. Keshu Ee Veed.. 2021 7.1. Kodiyil Oruva.. 2021 0.0. Kurup 2021 6. Marakkar: Lio.. 2021 6.7. Munich: The E.. 2021 7. Pushpa: The R.. 2021 7.8 ...Churuli. 1080P-WEB-DL 2021 107 Min. Resident Evil: Welcome to Raccoon City. 1080P-WEB-DL 2021 92 Min. Silent Night. 1080P-WEB-DL 2021 99 Min. Antlers. 720P-WEB-DL Subscene - Passionate about good subtitlesGenre: Fantasy, Mystery, Sci-Fi Director: Lijo Jose Pellissery Writer: Hareesh S., Vinoy Thomas Actors: Chemban Vinod Jose, Vinay Forrt, Joju George Runtime: 2h 0min Country: India Language: Malayalam Release Date: 2021-11-19 Production: Chembosky Motion Pictures, Kasargod Aadmi Pictures, Movie MonasteryNew Delhi: Moments after the Union Budget 2022-23 was presented and Lok Sabha adjourned on Tuesday, an interesting conversation took place off the camera when Prime Minister Narendra Modi crossed the well of the House and met the leaders of opposition parties.Answer (1 of 2): One of the common subtitle format is .srt file. They r widely accepted by video streaming and playing sites, apps. Hotstar doesn't have the feature ...Title: My HTML playlist 1 Type: HTML Description: Created using HTML markup, all format are supported and it can have mixed video formats. Title: My Youtube playlist 1 Type: YOUTUBE Description: Created by loading a Youtube playlist, video are loaded and played from Youtube. Title: My mixed playlist 1 Type: MIXED Description: Created using HTML markup, videos are played self or external hosted ...1 00:01:59,880 --> 00:02:02,320 Do you know who Perumadan is, Shajiva? 2 00:02:03,720 --> 00:02:06,360 He is a phantom who leads everyone astray. 3 00:02:07,120 ...yifytorrent.unblockit.llcThamasha Malayalam Movie: Check out the latest news about Chemban Vinod Jose's Thamasha movie, story, cast & crew, release date, photos, review, box office collections and much more only on FilmiBeatChuruli (ചുരുളി) is a 2021 Indian Malayalam -language science fiction mystery horror film directed by Lijo Jose Pellissery and written by S. Hareesh, starring Vinay Forrt, Chemban Vinod Jose and Jaffar Idukki in key roles. Churuli (2021) TRUE WEB-DL - [1080p & 720p - AVC - (Tamil + Telugu + Hindi + Kannada + Malayalam) - 2.6GB & 1.2GB] - [x264 - 750MB - 450MB & 250MB] - ESubIndex of /subtitle/. Name Last modified Size Description. Parent Directory 28-Mar-2022 05:47 - Music 30-Nov-2021 19:36 - kore 03-Feb-2020 23:01 - 1.Nenokkadine.2014.srt 31-Jul-2018 07:54 160k 1.txt 19-Apr-2020 18:47 4k 1.zip 09-Jun-2021 19:23 1068k 100 Days of Love _2015_.srt 26-Aug-2017 18:05 108k 100.Yen.Love.2014.srt 26-Aug-2018 12:27 92k ...Each video can have one or more subtitles (txt or srt). Landscapes Volume Two Each video can contain a detailed description, the description can be formatted with CSS as you like. Nonton Film Eternals (2021) Sub Indo. Film Eternals (2021) menceritakan The Eternals adalah tim alien kuno yang telah hidup di Bumi secara rahasia selama ribuan tahun. Ketika sebuah tragedi tak terduga memaksa mereka keluar dari bayang-bayang, mereka dipaksa untuk bersatu kembali melawan musuh paling kuno umat manusia, Deviants.New Delhi: Moments after the Union Budget 2022-23 was presented and Lok Sabha adjourned on Tuesday, an interesting conversation took place off the camera when Prime Minister Narendra Modi crossed the well of the House and met the leaders of opposition parties.'Marakkar Lion of the Arabian Sea' portrays the courageous life-events of a rebellious naval chief, Kunjali Marakkar the fourth, who fought against the Portuguese in the ancient times. He was the fourth naval chief of the Calicut Zamorin. The film revolves around him who was also the first Indian Naval Commander and Indian freedom fighter for the war against the Portuguese.Title: English-SRT Language : English Default: Yes Forced : No Text #2 ID : 6 ID in the original source medium : 4768 (0x12A0) Format : PGS Muxing mode: zlib Codec ID : S_HDMV/PGS Codec ID/Info: Picture based subtitle format used on BDs/HD-DVDs Duration : 2 h 29 min Bit rate : 21.2 kb/s Count of elements: 3422 Stream size: 22.7 MiB (0%) Title ...Churuli was released on Feb 12, 2021 and was directed by Lijo Jose Pellissery .This movie is 1 hr 54 min in duration and is available in Malayalam language. Chemban Vinod Jose, Surjith,...Each video can have one or more subtitles (txt or srt). Landscapes Volume Two. Each video can contain a detailed description, the description can be formatted with CSS as you like. ... Churuli . Two cops undercover trailing a fugitive enter a hamlet inside a dense forest. At every turn, they encounter a mysterious character who further mislead...While installing SRT of the movie, download and copy to the downloaded file to the exact file location of the movie on your mobile phone or personal computer or television. After copying to the same file location, the movie might play alongside the subtitles without any further settings or configuration.641001 375. 641029 313. 677544 1306. 678541 50. 680564 219. 682001 125. 682002 13. 682016 375. 682018 375. 682020 750. 682023 25. 683108 1525. 691324 94. 695037 100 ...Bhuj: The Pride of India Full Movie online with release date, trailer, cast and songs. Find out where you can watch or stream this Action film in Hindi on DIgit Binge.Each video can have one or more subtitles (txt or srt). Pre, Middle, Post - Roll Advertisement. ... Churuli 2021 7.3. 7.3; 2021. YEAR. HD-RIP. Quality. Hindi Dubbed. Fantasy,Mystery, Science Fiction, Horror. min. Churuli . Two cops undercover trailing a fugitive enter a hamlet inside a dense forest. At every turn, they encounter a mysterious ...7.3. jantoniot. Churuli (2021) Churuli (2021) Malayalam - WEB - HDRip - ESub. Watch online Download Subtitles Searcher. 1CD. Ever since Kubrick tracked Jack and his family's slow car ride to the Overlook Hotel in the opening of The Shining, every movie about characters going on a trip where they end up trapped in some hill station feels compelled to pay homage to the master.The opening of Chuzhal, the 2021 Malayalam film, is one of the most mesmerising homages to The Shining I've seen in recent years.Each video can have one or more subtitles (txt or srt). Landscapes Volume Two. Each video can contain a detailed description, the description can be formatted with CSS as you like. ... Churuli 2021 7.3. Keshu Ee Veed.. 2021 7.1. Kodiyil Oruva.. 2021 0.0. Kurup 2021 6. Marakkar: Lio.. 2021 6.7. Munich: The E.. 2021 7. Pushpa: The R.. 2021 7.8 ...Each video can have one or more subtitles (txt or srt). Landscapes Volume Two. Each video can contain a detailed description, the description can be formatted with CSS as you like. ... Churuli. Two cops undercover trailing a fugitive enter a hamlet inside a dense forest. At every turn, they encounter a mysterious character who further mislead...CONF_HEADER_ADS « back to profile 470 ratings givenThe film is produced by Rajani Telluri and Reshmi Simha under SRT Entertainments and Mudhra's Film Factory. This movie will have music by Rajesh Murugesan who is known for composing music for ...Download Churuli (2021) Dual Audio {Hindi-Malayalam} Movie 480p | 720p | 1080p WEB-DL ESub. Download 36 Farmhouse (2022) Hindi Movie 480p | 720p | 1080p WEB-DL ESub. Download Bhaukaal (Season 2) Hindi MX Player WEB Series 480p | 720p | 1080p WEB-DL ESub.Bhuj: The Pride of India Full Movie online with release date, trailer, cast and songs. Find out where you can watch or stream this Action film in Hindi on DIgit Binge.Tovino Thomas's 2020 Kilometers And Kilometers Full Movie Download. By. Sarala Vanga. 'Kilometers And Kilometers' is a 2020 Malayalam movie made under the direction of Joe Baby. Ramshi has produced this movie under the banner: Anto Joseph Film Company. The lead roles are played by Tovino Thomas.Bhuj: The Pride of India Full Movie online with release date, trailer, cast and songs. Find out where you can watch or stream this Action film in Hindi on DIgit Binge.While installing SRT of the movie, download and copy to the downloaded file to the exact file location of the movie on your mobile phone or personal computer or television. After copying to the same file location, the movie might play alongside the subtitles without any further settings or configuration.Answer (1 of 3): Kalapani is a classic Malayalam movie which deals with the freedom struggle and life of prisoners in the notorious Andaman jail. The movie begins with a young army officer in independent India undertaking a journey to find out the whereabouts of Govardhan Menon. The movie unf...New Delhi: Moments after the Union Budget 2022-23 was presented and Lok Sabha adjourned on Tuesday, an interesting conversation took place off the camera when Prime Minister Narendra Modi crossed the well of the House and met the leaders of opposition parties.'Marakkar Lion of the Arabian Sea' portrays the courageous life-events of a rebellious naval chief, Kunjali Marakkar the fourth, who fought against the Portuguese in the ancient times. He was the fourth naval chief of the Calicut Zamorin. The film revolves around him who was also the first Indian Naval Commander and Indian freedom fighter for the war against the Portuguese.Best for: Easily downloaded English subtitles of multiple languages. Subscene is a free website that downloads SRT files (files that contain subtitle data) in a wide variety of over sixty languages. Subscene adds new films to its library daily and features a simple user interface.7.3. jantoniot. Churuli (2021) Churuli (2021) Malayalam - WEB - HDRip - ESub. Watch online Download Subtitles Searcher. 1CD. "Watch movies, new TV shows, Hulu Originals, and more with Hulu. Whether you're looking to watch new TV series, browse episodes of your favorite series or want to discover and browse the latest movies you'll have everything you need.1 00:01:59,880 --> 00:02:02,320 Do you know who Perumadan is, Shajiva? 2 00:02:03,720 --> 00:02:06,360 He is a phantom who leads everyone astray. 3 00:02:07,120 ...Each video can have one or more subtitles (txt or srt). Pre, Middle, Post - Roll Advertisement. ... Churuli 2021 7.3. 7.3; 2021. YEAR. HD-RIP. Quality. Hindi Dubbed. Fantasy,Mystery, Science Fiction, Horror. min. Churuli . Two cops undercover trailing a fugitive enter a hamlet inside a dense forest. At every turn, they encounter a mysterious ...Download Sky Sharks 2020 1080p US BluRay x265-RARBG torrent for free, Downloads via Magnet Link or FREE Movies online to Watch in LimeTorrents.pro Hash ...Claim your Open Account Offer from the world's favourite betting site.Download subtitle Indonesia disini Baca panduan disini west/lostinspaceseason1/8360.MP4 west/lostinspaceseason1/8480.MP4 west/lostinspaceseason1/8720 lostinspaceseason1/8.srt| 1346388/ Incoming search terms:lost in space sub indochuchy ns2infoxixi lost in spcelost in space s3 sub indolost in space season 2 download sub indononton film lost in spacenonton lost in spacenonton the lost in spaceChuruli (2021) TRUE WEB-DL - [1080p & 720p - AVC - (Tamil + Telugu + Hindi + Kannada + Malayalam) - 2.6GB & 1.2GB] - [x264 - 750MB - 450MB & 250MB] - ESubTitle: My HTML playlist 1 Type: HTML Description: Created using HTML markup, all format are supported and it can have mixed video formats. Title: My Youtube playlist 1 Type: YOUTUBE Description: Created by loading a Youtube playlist, video are loaded and played from Youtube. Title: My mixed playlist 1 Type: MIXED Description: Created using HTML markup, videos are played self or external hosted ...Title: English-SRT Language : English Default: Yes Forced : No Text #2 ID : 6 ID in the original source medium : 4768 (0x12A0) Format : PGS Muxing mode: zlib Codec ID : S_HDMV/PGS Codec ID/Info: Picture based subtitle format used on BDs/HD-DVDs Duration : 2 h 29 min Bit rate : 21.2 kb/s Count of elements: 3422 Stream size: 22.7 MiB (0%) Title ...Download subtitle Indonesia disini Baca panduan disini west/lostinspaceseason1/8360.MP4 west/lostinspaceseason1/8480.MP4 west/lostinspaceseason1/8720 lostinspaceseason1/8.srt| 1346388/ Incoming search terms:lost in space sub indochuchy ns2infoxixi lost in spcelost in space s3 sub indolost in space season 2 download sub indononton film lost in spacenonton lost in spacenonton the lost in space Download Sky Sharks 2020 1080p US BluRay x265-RARBG torrent for free, Downloads via Magnet Link or FREE Movies online to Watch in LimeTorrents.pro Hash ...Download Sky Sharks 2020 1080p US BluRay x265-RARBG torrent for free, Downloads via Magnet Link or FREE Movies online to Watch in LimeTorrents.pro Hash ...Un film de Genie Joseph avec Felix Ward et Maria Pechukas. Synopsis : Un sorcier diabolique, bien que décomposé, attire dans sa maison pleine d'horreurs cachées, un groupe de fêtards, afin de trouver parmi eux le parfait sacrifice humain, qui permettra de redonner vie à sa belle fiancée. Title: Churuli 2021 1080p Malayalam 10bit 2CH x265 [HashMiner] Category: Movies > HEVC/x265 Language: Malayalam Total Size: 1.85 GB Info Hash ... san diego county minimum house sizechess proposal for schoolsano ang ibig sabihin ng serbisyo o paglilingkodreceived a call saying i have a warrant ukhlpam from the office pornfree math worksheets for 4th gradersporn comics.franklin county ohio excess funds listhindering spirit meaningsims 4 aspirations and traits modsdwr flight reclinerffmpeg rtbufsizegearbox support twitterhot tubs for sale memphis tnic wtr redmi note 8 prodog breeders spokanewhen do tips show up on uber eatscomposite decking joistspaul wiiliamsnetsuite electronic paymentsscore of ga gamepart time jobs rehoboth beach delawareleer topper lockcredit karma refund advancevenus in 1st house synastry forumtrabajos en virginia para hispanosnational cyber security challengesmarttop alternativebvn details checkerangular add script to index htmlfr691v kawasaki2945 hazelwood st 210 maplewood mn 55109and just like that episodeshorse for sale in moexclusive small home plan with two bedrooms4 x 8 floor register whitefreya allan deepfake pornromney marsh countyaccounting jobs el paso txcitation trailers kamloopshow tall is 6 cubits in feetjungock parkunity photon enemy aitop apple tv showsspecialita true zerograzing land for sale torfaenastro mehot wheels boulevard listholley ls1 harness wiring diagramthe rock scooternorthbay moviescascade springs creditthree js video texture mobilefish brains appfree rental history checkariana grande fake pornsimple pacman python codeencarstsprof knife sharpenerfinexbox withdrawalhand of godsound wave interference simulationhope program phone numberpixiv sketch review 10l_2ttl